#TITLE:Lips;
#SUBTITLE:;
#ARTIST:Jolin Tsai;
#TITLETRANSLIT:Lips;
#SUBTITLETRANSLIT:;
#ARTISTTRANSLIT:Thai Y Lam;
#CREDIT:;
#BANNER:Lips-bn.png;
#BACKGROUND:Lips-bg.png;
#LYRICSPATH:;
#CDTITLE:pm4cd.png;
#MUSIC:Lips.mp3;
#OFFSET:0.200;
#SAMPLESTART:47.016;
#SAMPLELENGTH:20.000;
#SELECTABLE:YES;
#BPMS:0.000=125.010;
#STOPS:;
#BGCHANGES:;
// cache tags:
#FIRSTBEAT:2.250;
#LASTBEAT:394.250;
#SONGFILENAME:Songs/Music V.I.P ^_^/Lips/Lips.sm;
#HASMUSIC:1;
#HASBANNER:1;
#MUSICLENGTH:191.425;
// end cache tags

//---------------dance-single - ----------------
#NOTES:
     dance-single:
     :
     Hard:
     9:
     0.835,0.798,1.000,0.031,1.000,830.000,282.000,6.000,0.000,3.000:
0000
0000
0000
0000
0000
0000
0000
0000
0000
1001
0000
0010
0100
1000
0000
0010
,
0000
0001
0000
0010
0000
0100
0000
1000
0000
0011
0000
1000
0100
0010
0000
0001
,
0000
0100
0000
1000
0000
0001
0000
0100
0000
1000
0000
0000
0010
0001
0000
0010
,
0000
0100
1000
0000
0011
1000
0001
0100
0000
1000
0000
0000
0010
0100
0000
0001
,
0000
1000
0100
0000
1001
0010
0100
0001
0000
1010
0000
0100
0010
0001
0000
1000
,
0000
0010
0000
0100
0000
0001
0000
1000
0000
0011
0000
0010
0100
1000
0000
0100
,
0000
0001
0000
0010
0000
1000
0000
0100
0000
1000
0000
0000
0100
1000
0000
0001
,
0000
0100
0010
0000
1100
0001
0010
1000
0000
0100
0000
0000
1000
0001
0000
0100
,
0000
0001
0100
0000
0011
1000
0100
0010
0000
1001
0000
0100
0010
1000
0000
0011
,
0000
0100
0000
1001
0000
0100
0000
0000
0000
1100
0000
0010
0001
0010
0000
1100
,
0000
0010
0000
0101
0000
1000
0000
0000
0000
0110
0000
0001
0010
1000
0000
0101
,
0000
0010
0000
1001
0000
0100
0000
0000
0000
0011
0000
0100
1000
0001
0000
0110
,
0000
1000
0000
0011
0000
0100
0000
0000
0000
1001
0000
0010
0100
1000
0000
0101
,
0000
0010
0000
1001
0000
0100
0000
0000
0000
0011
0000
0010
0001
1000
0000
0110
,
0000
1000
0000
0011
0000
1000
0000
0000
0000
0101
0000
0001
1000
0100
0000
1010
,
0000
0100
0000
1001
0000
0010
0000
0000
0000
1001
0000
0100
0010
0001
0000
1010
,
0000
0100
0000
0101
0000
1000
0000
0000
0000
0101
0000
0010
1000
0100
0000
0011
,
0000
1000
0000
1010
0000
0100
0000
0001
0000
1010
0000
0100
0001
1000
0000
0011
,
0000
1000
0000
1010
0000
0100
0000
0001
0000
1010
0000
0000
0010
0001
0000
0110
,
0000
1000
0100
0000
0011
1000
0010
0001
0000
1001
0000
0000
0010
1000
0000
0011
,
0000
0100
1000
0000
1010
0001
0100
1000
0000
1010
0000
0100
0000
0010
0000
1001
,
0000
0010
0000
1100
0000
0001
0000
0010
0000
1001
0000
0100
0000
0001
0000
1100
,
0000
0010
0000
1001
0000
0100
0000
0001
0000
1010
0000
0000
0100
0010
0000
1001
,
0000
0010
0100
0000
1001
0010
0100
1000
0000
0021
0000
0000
0100
0001
0000
0100
,
0000
1000
0100
0000
0000
0001
0100
1000
0030
1100
0000
0010
0001
0010
0000
1100
,
0000
0001
0000
0110
0000
1000
0000
0000
0000
0110
0000
0001
0010
0100
0000
1001
,
0000
0100
0000
1010
0000
0001
0000
0000
0000
1010
0000
1000
0100
0001
0000
1010
,
0000
0001
0000
1100
0000
0001
0000
0000
0000
1001
0000
0010
0100
1000
0000
0011
,
0000
0001
0000
1010
0000
0100
0000
0001
0000
1010
0000
0100
0010
0001
0000
1010
,
0000
0100
0000
1001
0000
0010
0000
0000
0000
0011
0000
0100
1000
0100
0000
1001
,
0000
0010
0000
1100
0000
0010
0000
0000
0000
0101
0000
0010
0100
1000
0000
0110
,
0000
0001
0000
1100
0000
0010
0000
0000
0000
1100
0000
0010
0001
1000
0000
0011
,
0000
0000
0100
0000
0000
0000
0000
0000
0000
0000
2000
0000
0000
0000
0000
0000
0000
0000
0002
0000
0000
0000
0000
0000
0000
0000
3000
0000
0000
0000
0100
1000
,
0100
0000
1000
0100
1000
0000
0010
0000
0000
0000
0100
0000
0000
0000
0000
0000
0000
0000
1103
0000
0000
0000
0001
0000
0010
0000
0100
0000
0000
0000
0011
0000
,
0000
0100
0000
1010
0000
0100
0000
0000
0000
1001
0000
0100
0010
1000
0000
0101
,
0000
0010
0000
1100
0000
1000
0000
0000
0000
0110
0000
0010
0100
1000
0000
1100
,
0000
0001
0000
0110
0000
1000
0000
0000
0000
1001
0000
0010
0001
1000
0000
0110
,
0000
0100
0000
0101
0000
0010
0000
0000
0000
0101
0000
0010
0100
1000
0000
0011
,
0000
0100
0000
1001
0000
0010
0000
0000
0000
1100
0000
1000
0100
0010
0000
0101
,
0000
0010
0000
0011
0000
0001
0000
0000
0000
1010
0000
0001
1000
0100
0000
0011
,
0000
0100
0000
0110
0000
0001
0000
0000
0000
0100
0000
0001
0010
0100
0000
1000
,
0000
0010
0000
0100
0000
0010
0000
0100
0000
1100
0000
0100
0010
0001
0000
0101
,
0000
0010
0000
0110
0000
0100
0000
0000
0000
1010
0000
0010
0100
0001
0000
0110
,
0000
1000
0000
0011
0000
0100
0000
0000
0000
0101
0000
0000
0100
1000
0000
0011
,
0000
0010
0100
0000
0101
1000
0100
0010
0000
1001
0000
0000
0001
0010
0000
1010
,
0000
1000
0010
0000
0110
0001
1000
0010
0000
1100
0000
0001
0000
0100
0000
1010
,
0000
0010
0000
0101
0000
0010
0000
0100
0000
1001
0000
0100
0000
0010
0000
0101
,
0000
0010
0000
1100
0000
0010
0000
0001
0000
0110
0000
0000
1000
0100
0000
0101
,
0000
0001
0010
0000
1010
0100
0010
0001
0000
0201
0000
0000
1010
0001
0000
1000
,
0000
0010
1000
0000
0000
1000
0010
0001
0300
1100
0000
0100
0010
0001
0000
1010
,
0000
0010
0000
0101
0000
0100
0000
0000
0000
0101
0000
0010
0100
0010
0000
1100
,
0000
0001
0000
1010
0000
1000
0000
0000
0000
0011
0000
0100
1000
0100
0000
0011
,
0000
0010
0000
0101
0000
1000
0000
0000
0000
0011
0000
0100
0010
0001
0000
1010
,
0000
0100
0000
0110
0000
0001
0000
0010
0000
1100
0000
0001
0010
1000
0000
0101
,
0000
0100
0000
0011
0000
1000
0000
0000
0000
1001
0000
0001
0010
0001
0000
1010
,
0000
0100
0000
0011
0000
0100
0000
0000
0000
1010
0000
0010
0100
0001
0000
1100
,
0000
0010
0000
1001
0000
0100
0000
0000
0000
1100
0000
0010
0001
1000
0000
0011
,
0000
0100
0000
1010
0000
0100
0000
0010
0000
0001
0000
0010
0000
0101
0000
1000
,
0000
0100
0000
0010
0000
1001
0000
0010
0000
0100
0000
1000
0000
0101
0000
0010
,
0000
0001
0000
0010
0000
1001
0000
0100
0000
0011
0001
0100
1000
1010
0000
0100
,
0000
0001
0000
0010
0000
1100
0000
0010
0000
1100
1000
0100
0001
1001
0000
0010
,
0000
1000
0000
0100
0000
1001
0000
0100
0000
0001
0000
0010
0000
1001
0000
0010
,
0000
0100
0000
0001
0000
1010
0000
0100
0000
1000
0000
0100
0000
0101
0000
0010
,
0000
0010
0000
0001
0000
1001
0000
0010
0000
1001
1000
0100
0010
0011
0000
1000
,
0000
0001
0000
0100
0000
1010
0000
0100
0000
1001
0001
0010
1000
1100
0000
0010
,
0000
0100
0000
0001
0000
1010
0000
0100
0000
1001
0000
0010
0100
0001
0000
1100
,
0000
0010
0000
0101
0000
0010
0000
1000
0000
0110
0000
0001
0010
0100
0000
1100
,
0000
0010
0000
0101
0000
0010
0000
1000
0000
0110
0000
0000
0001
0010
0000
1100
,
0000
0001
0010
0000
0101
1000
0010
0001
0000
1010
0000
0000
0100
0001
0000
1010
,
0000
0001
1000
0000
0101
0010
0100
1000
0000
0101
0000
0010
0100
1000
0000
0011
,
0000
0100
0000
1001
0000
0010
0000
1000
0000
0101
0000
0010
0100
0001
0000
1100
,
0000
0100
0000
1001
0000
0010
0000
0100
0000
1001
0000
0000
0010
0100
0000
1001
,
0000
0100
0010
0000
1010
0001
0010
1000
0000
0000
0000
1100
0000
0000
0000
0110
,
0000
0000
0000
1100
1010
0101
0110
1001
0000
1110
0000
0011
0110
1100
0000
0001
,
0000
0010
0000
1100
0000
0100
0000
0000
0000
0001
0000
1100
0011
0110
0000
1000
,
0000
0001
0000
0110
0000
1000
0000
0000
0000
0010
0000
0101
1001
0110
0000
0001
,
0000
1000
0000
0110
0000
0001
0000
0000
0000
0010
0000
1100
0110
0011
0000
0100
,
0000
0001
0000
0110
0000
1000
0000
0100
0000
0001
0000
0110
0011
1010
0000
0100
,
0000
0001
0000
0110
0000
1000
0000
0000
0000
0001
0000
0110
0011
1100
0000
0010
,
0000
1000
0000
0110
0000
0001
0000
0000
0000
1000
0000
0110
0011
1010
0000
0001
,
0000
0100
0000
1010
0000
0100
0000
0000
0000
0010
0000
0110
1010
0101
0000
0010
,
0000
1000
0000
0110
0000
0001
0000
1000
0000
0100
0000
1000
0100
0010
0000
0101
,
0000
1000
0000
0110
0000
0001
0000
0000
0000
0101
0000
0010
0100
1000
0000
0110
,
0000
1000
0000
0011
0000
0100
0000
0000
0000
0011
0000
0100
0010
0001
0000
1100
,
0000
0001
0000
1010
0000
0100
0000
0000
0000
1100
0000
0010
0001
1000
0000
0110
,
0000
0001
0000
1010
0000
0100
0000
0001
0000
1000
0000
0110
0011
1100
0000
0010
,
0000
1000
0000
0101
0000
0010
0000
0000
0000
1000
0000
0110
1100
0101
0000
0010
,
0000
1000
0000
0101
0000
0010
0000
0000
0000
0001
0000
0110
1001
1010
0000
0100
,
0000
0001
0000
0110
0000
1000
0000
0000
0000
0001
0000
0110
1010
1001
0000
0010
,
0000
1000
0000
0011
0000
1000
0000
0000
0000
1000
0000
0110
0011
1010
0000
0100
,
0000
0001
0000
0110
0000
1000
0000
0000
0000
0001
0000
0011
0110
1100
0000
0001
,
0000
1000
0000
0101
0000
0010
0000
0000
0000
1000
0000
0011
1010
1001
0000
0010
,
0000
1000
0000
0101
0000
0010
0000
0000
0000
0001
0000
0101
1100
1001
0000
0010
,
0000
1000
0000
0101
0000
0010
0000
1000
0000
0110
0000
0001
0010
0100
0000
1010
,
0000
0100
0000
0011
0000
1000
0000
0000
0000
0101
0000
0010
0100
0001
0000
1100
,
0000
0010
0000
1001
0000
0100
0000
0000
0000
1100
0000
0001
0100
1000
0000
0011
,
0000
1000
0000
0110
0000
0001
0000
0000
0000
0110
0000
1000
0100
0001
0000
1010
,
0000
0001
0000
0110
0000
1000
0000
0000
0000
0202
0000
0000
0000
0000
0000
0000
,
0000
0000
0000
0000
0000
0000
0000
0000
0000
0303
0000
0000
0000
0000
0000
0000
;
